  0
SECTION
  2
HEADER
  9
$ACADVER
  1
AC1014
  9
$ACADMAINTVER
 70
     9
  9
$DWGCODEPAGE
  3
ANSI_1252
  9
$INSBASE
 10
0.0
 20
0.0
 30
0.0
  9
$EXTMIN
 10
2.738274514265519
 20
3.757382860221098
 30
0.0
  9
$EXTMAX
 10
9.979663522886191
 20
7.848033166532943
 30
0.0
  9
$LIMMIN
 10
0.0
 20
0.0
  9
$LIMMAX
 10
12.0
 20
9.0
  9
$ORTHOMODE
 70
     0
  9
$REGENMODE
 70
     1
  9
$FILLMODE
 70
     1
  9
$QTEXTMODE
 70
     0
  9
$MIRRTEXT
 70
     1
  9
$DRAGMODE
 70
     2
  9
$LTSCALE
 40
1.0
  9
$OSMODE
 70
     0
  9
$ATTMODE
 70
     1
  9
$TEXTSIZE
 40
0.2
  9
$TRACEWID
 40
0.05
  9
$TEXTSTYLE
  7
STANDARD
  9
$CLAYER
  8
0
  9
$CELTYPE
  6
BYLAYER
  9
$CECOLOR
 62
   256
  9
$CELTSCALE
 40
1.0
  9
$DELOBJ
 70
     1
  9
$DISPSILH
 70
     0
  9
$DIMSCALE
 40
1.0
  9
$DIMASZ
 40
0.18
  9
$DIMEXO
 40
0.0625
  9
$DIMDLI
 40
0.38
  9
$DIMRND
 40
0.0
  9
$DIMDLE
 40
0.0
  9
$DIMEXE
 40
0.18
  9
$DIMTP
 40
0.0
  9
$DIMTM
 40
0.0
  9
$DIMTXT
 40
0.18
  9
$DIMCEN
 40
0.09
  9
$DIMTSZ
 40
0.0
  9
$DIMTOL
 70
     0
  9
$DIMLIM
 70
     0
  9
$DIMTIH
 70
     1
  9
$DIMTOH
 70
     1
  9
$DIMSE1
 70
     0
  9
$DIMSE2
 70
     0
  9
$DIMTAD
 70
     0
  9
$DIMZIN
 70
     0
  9
$DIMBLK
  1

  9
$DIMASO
 70
     1
  9
$DIMSHO
 70
     1
  9
$DIMPOST
  1

  9
$DIMAPOST
  1

  9
$DIMALT
 70
     0
  9
$DIMALTD
 70
     2
  9
$DIMALTF
 40
25.4
  9
$DIMLFAC
 40
1.0
  9
$DIMTOFL
 70
     0
  9
$DIMTVP
 40
0.0
  9
$DIMTIX
 70
     0
  9
$DIMSOXD
 70
     0
  9
$DIMSAH
 70
     0
  9
$DIMBLK1
  1

  9
$DIMBLK2
  1

  9
$DIMSTYLE
  2
STANDARD
  9
$DIMCLRD
 70
     0
  9
$DIMCLRE
 70
     0
  9
$DIMCLRT
 70
     0
  9
$DIMTFAC
 40
1.0
  9
$DIMGAP
 40
0.09
  9
$DIMJUST
 70
     0
  9
$DIMSD1
 70
     0
  9
$DIMSD2
 70
     0
  9
$DIMTOLJ
 70
     1
  9
$DIMTZIN
 70
     0
  9
$DIMALTZ
 70
     0
  9
$DIMALTTZ
 70
     0
  9
$DIMFIT
 70
     3
  9
$DIMUPT
 70
     0
  9
$DIMUNIT
 70
     2
  9
$DIMDEC
 70
     2
  9
$DIMTDEC
 70
     2
  9
$DIMALTU
 70
     2
  9
$DIMALTTD
 70
     2
  9
$DIMTXSTY
  7
STANDARD
  9
$DIMAUNIT
 70
     0
  9
$LUNITS
 70
     2
  9
$LUPREC
 70
     4
  9
$SKETCHINC
 40
0.1
  9
$FILLETRAD
 40
0.5
  9
$AUNITS
 70
     0
  9
$AUPREC
 70
     0
  9
$MENU
  1
.
  9
$ELEVATION
 40
0.0
  9
$PELEVATION
 40
0.0
  9
$THICKNESS
 40
0.0
  9
$LIMCHECK
 70
     0
  9
$BLIPMODE
 70
     0
  9
$CHAMFERA
 40
0.5
  9
$CHAMFERB
 40
0.5
  9
$CHAMFERC
 40
1.0
  9
$CHAMFERD
 40
0.0
  9
$SKPOLY
 70
     0
  9
$TDCREATE
 40
2452177.311132291
  9
$TDUPDATE
 40
2452646.394013425
  9
$TDINDWG
 40
0.0017328704
  9
$TDUSRTIMER
 40
0.0017328704
  9
$USRTIMER
 70
     1
  9
$ANGBASE
 50
0.0
  9
$ANGDIR
 70
     0
  9
$PDMODE
 70
     0
  9
$PDSIZE
 40
0.0
  9
$PLINEWID
 40
0.0
  9
$COORDS
 70
     1
  9
$SPLFRAME
 70
     0
  9
$SPLINETYPE
 70
     6
  9
$SPLINESEGS
 70
     8
  9
$ATTDIA
 70
     1
  9
$ATTREQ
 70
     1
  9
$HANDLING
 70
-16383
  9
$HANDSEED
  5
24E
  9
$SURFTAB1
 70
     6
  9
$SURFTAB2
 70
     6
  9
$SURFTYPE
 70
     6
  9
$SURFU
 70
     6
  9
$SURFV
 70
     6
  9
$UCSNAME
  2

  9
$UCSORG
 10
0.0
 20
0.0
 30
0.0
  9
$UCSXDIR
 10
1.0
 20
0.0
 30
0.0
  9
$UCSYDIR
 10
0.0
 20
1.0
 30
0.0
  9
$PUCSNAME
  2

  9
$PUCSORG
 10
0.0
 20
0.0
 30
0.0
  9
$PUCSXDIR
 10
1.0
 20
0.0
 30
0.0
  9
$PUCSYDIR
 10
0.0
 20
1.0
 30
0.0
  9
$USERI1
 70
     0
  9
$USERI2
 70
     0
  9
$USERI3
 70
     0
  9
$USERI4
 70
     0
  9
$USERI5
 70
     0
  9
$USERR1
 40
0.0
  9
$USERR2
 40
0.0
  9
$USERR3
 40
0.0
  9
$USERR4
 40
0.0
  9
$USERR5
 40
0.0
  9
$WORLDVIEW
 70
     1
  9
$SHADEDGE
 70
     3
  9
$SHADEDIF
 70
    70
  9
$TILEMODE
 70
     1
  9
$MAXACTVP
 70
    64
  9
$PINSBASE
 10
0.0
 20
0.0
 30
0.0
  9
$PLIMCHECK
 70
     0
  9
$PEXTMIN
 10
1.000000000000000E+20
 20
1.000000000000000E+20
 30
1.000000000000000E+20
  9
$PEXTMAX
 10
-1.000000000000000E+20
 20
-1.000000000000000E+20
 30
-1.000000000000000E+20
  9
$PLIMMIN
 10
0.0
 20
0.0
  9
$PLIMMAX
 10
12.0
 20
9.0
  9
$UNITMODE
 70
     0
  9
$VISRETAIN
 70
     1
  9
$PLINEGEN
 70
     0
  9
$PSLTSCALE
 70
     1
  9
$TREEDEPTH
 70
  3020
  9
$PICKSTYLE
 70
     1
  9
$CMLSTYLE
  2
STANDARD
  9
$CMLJUST
 70
     0
  9
$CMLSCALE
 40
1.0
  9
$PROXYGRAPHICS
 70
     1
  9
$MEASUREMENT
 70
     0
  0
ENDSEC
  0
SECTION
  2
CLASSES
  0
CLASS
  1
ACDBDICTIONARYWDFLT
  2
AcDbDictionaryWithDefault
  3
AutoCAD 2000
 90
        0
280
     0
281
     0
  0
CLASS
  1
ACDBPLACEHOLDER
  2
AcDbPlaceHolder
  3
AutoCAD 2000
 90
        0
280
     0
281
     0
  0
CLASS
  1
LAYOUT
  2
AcDbLayout
  3
AutoCAD 2000
 90
        0
280
     0
281
     0
  0
CLASS
  1
LONG_TRANSACTION
  2
AcDbLongTransaction
  3
AutoCAD 2000
 90
        0
280
     0
281
     0
  0
CLASS
  1
LWPOLYLINE
  2
AcDbPolyline
  3
AutoCAD 2000
 90
        0
280
     0
281
     1
  0
CLASS
  1
HATCH
  2
AcDbHatch
  3
AutoCAD 2000
 90
        0
280
     0
281
     1
  0
CLASS
  1
XRECORD
  2
AcDbXrecord
  3
AutoCAD 2000
 90
        0
280
     0
281
     0
  0
ENDSEC
  0
SECTION
  2
TABLES
  0
TABLE
  2
VPORT
  5
8
330
0
100
AcDbSymbolTable
 70
     3
  0
VPORT
  5
227
330
8
100
AcDbSymbolTableRecord
100
AcDbViewportTableRecord
  2
*ACTIVE
 70
     0
 10
0.0
 20
0.0
 11
1.0
 21
1.0
 12
6.387271880518982
 22
5.283088231257247
 13
0.0
 23
0.0
 14
0.5
 24
0.5
 15
0.5
 25
0.5
 16
0.0
 26
0.0
 36
1.0
 17
0.0
 27
0.0
 37
0.0
 40
8.614443080443942
 41
1.462515883100381
 42
50.0
 43
0.0
 44
0.0
 50
0.0
 51
0.0
 71
     0
 72
   100
 73
     1
 74
     3
 75
     0
 76
     0
 77
     0
 78
     0
  0
ENDTAB
  0
TABLE
  2
LTYPE
  5
5
330
0
100
AcDbSymbolTable
 70
     1
  0
LTYPE
  5
14
330
5
100
AcDbSymbolTableRecord
100
AcDbLinetypeTableRecord
  2
BYBLOCK
 70
     0
  3

 72
    65
 73
     0
 40
0.0
  0
LTYPE
  5
15
330
5
100
AcDbSymbolTableRecord
100
AcDbLinetypeTableRecord
  2
BYLAYER
 70
     0
  3

 72
    65
 73
     0
 40
0.0
  0
LTYPE
  5
16
330
5
100
AcDbSymbolTableRecord
100
AcDbLinetypeTableRecord
  2
CONTINUOUS
 70
     0
  3
Solid line
 72
    65
 73
     0
 40
0.0
  0
ENDTAB
  0
TABLE
  2
LAYER
  5
2
330
0
100
AcDbSymbolTable
 70
     4
  0
LAYER
  5
10
330
2
100
AcDbSymbolTableRecord
100
AcDbLayerTableRecord
  2
0
 70
     0
 62
     7
  6
CONTINUOUS
  0
LAYER
  5
34
330
2
100
AcDbSymbolTableRecord
100
AcDbLayerTableRecord
  2
L
 70
     0
 62
     7
  6
CONTINUOUS
  0
LAYER
  5
45
330
2
100
AcDbSymbolTableRecord
100
AcDbLayerTableRecord
  2
DEFPOINTS
 70
     0
 62
     7
  6
CONTINUOUS
  0
LAYER
  5
88
330
2
100
AcDbSymbolTableRecord
100
AcDbLayerTableRecord
  2
TX
 70
     0
 62
   150
  6
CONTINUOUS
  0
ENDTAB
  0
TABLE
  2
STYLE
  5
3
330
0
100
AcDbSymbolTable
 70
     3
  0
STYLE
  5
11
330
3
100
AcDbSymbolTableRecord
100
AcDbTextStyleTableRecord
  2
STANDARD
 70
     0
 40
0.0
 41
1.0
 50
0.0
 71
     0
 42
0.2
  3
txt
  4

  0
STYLE
  5
35
330
3
100
AcDbSymbolTableRecord
100
AcDbTextStyleTableRecord
  2
REG
 70
     0
 40
0.0
 41
1.0
 50
0.0
 71
     0
 42
0.09375
  3
E:\R13\com\fonts\ARCHITXT.SHX
  4

  0
STYLE
  5
36
330
3
100
AcDbSymbolTableRecord
100
AcDbTextStyleTableRecord
  2
DIMTXT
 70
     0
 40
0.0
 41
1.0
 50
0.0
 71
     0
 42
1.125
  3
archt.shx
  4

  0
ENDTAB
  0
TABLE
  2
VIEW
  5
6
330
0
100
AcDbSymbolTable
 70
     0
  0
ENDTAB
  0
TABLE
  2
UCS
  5
7
330
0
100
AcDbSymbolTable
 70
     0
  0
ENDTAB
  0
TABLE
  2
APPID
  5
9
330
0
100
AcDbSymbolTable
 70
     1
  0
APPID
  5
12
330
9
100
AcDbSymbolTableRecord
100
AcDbRegAppTableRecord
  2
ACAD
 70
     0
  0
ENDTAB
  0
TABLE
  2
DIMSTYLE
  5
A
330
0
100
AcDbSymbolTable
 70
     6
  0
DIMSTYLE
105
27
102
{ACAD_REACTORS
330
C1
330
CF
102
}
330
A
100
AcDbSymbolTableRecord
100
AcDbDimStyleTableRecord
  2
STANDARD
 70
     0
  3

  4

  5

  6

  7

 40
1.0
 41
0.18
 42
0.0625
 43
0.38
 44
0.18
 45
0.0
 46
0.0
 47
0.0
 48
0.0
140
0.18
141
0.09
142
0.0
143
25.4
144
1.0
145
0.0
146
1.0
147
0.09
 71
     0
 72
     0
 73
     1
 74
     1
 75
     0
 76
     0
 77
     0
 78
     0
170
     0
171
     2
172
     0
173
     0
174
     0
175
     0
176
     0
177
     0
178
     0
270
     2
271
     2
272
     2
273
     2
274
     2
340
11
275
     0
280
     0
281
     0
282
     0
283
     1
284
     0
285
     0
286
     0
287
     3
288
     0
  0
DIMSTYLE
105
37
330
A
100
AcDbSymbolTableRecord
100
AcDbDimStyleTableRecord
  2
1
 70
     0
  3

  4

  5

  6

  7

 40
1.0
 41
1.125
 42
0.5
 43
0.375
 44
1.19921875
 45
0.0
 46
0.5
 47
0.0
 48
0.0
140
1.125
141
0.125
142
0.0
143
25.4
144
1.0
145
0.0
146
0.8
147
0.5625
 71
     0
 72
     0
 73
     0
 74
     0
 75
     0
 76
     0
 77
     1
 78
     3
170
     0
171
     2
172
     1
173
     0
174
     1
175
     0
176
   133
177
   133
178
   150
270
     2
271
     3
272
     3
273
     2
274
     2
340
36
275
     0
280
     0
281
     0
282
     0
283
     1
284
     0
285
     0
286
     0
287
     4
288
     0
  0
DIMSTYLE
105
38
330
A
100
AcDbSymbolTableRecord
100
AcDbDimStyleTableRecord
  2
1$2
 70
     0
  3

  4

  5
DOTSMALL
  6

  7

 40
1.0
 41
1.5
 42
0.5
 43
0.375
 44
1.19921875
 45
0.0
 46
0.5
 47
0.0
 48
0.0
140
0.75
141
0.125
142
0.0
143
25.4
144
1.0
145
0.0
146
0.8
147
0.5625
 71
     0
 72
     0
 73
     0
 74
     0
 75
     0
 76
     0
 77
     1
 78
     3
170
     0
171
     2
172
     1
173
     0
174
     1
175
     0
176
   133
177
   133
178
   150
270
     2
271
     3
272
     3
273
     2
274
     2
340
36
275
     0
280
     0
281
     0
282
     0
283
     1
284
     0
285
     0
286
     0
287
     4
288
     0
  0
DIMSTYLE
105
39
330
A
100
AcDbSymbolTableRecord
100
AcDbDimStyleTableRecord
  2
1$4
 70
     0
  3

  4

  5

  6

  7
DOTSMALL
 40
1.0
 41
1.5
 42
0.5
 43
0.375
 44
1.19921875
 45
0.0
 46
0.5
 47
0.0
 48
0.0
140
0.75
141
0.125
142
0.0
143
25.4
144
1.0
145
0.0
146
0.8
147
0.5625
 71
     0
 72
     0
 73
     0
 74
     0
 75
     0
 76
     0
 77
     1
 78
     3
170
     0
171
     2
172
     1
173
     1
174
     1
175
     0
176
   133
177
   133
178
   150
270
     2
271
     3
272
     3
273
     2
274
     2
340
36
275
     0
280
     0
281
     0
282
     0
283
     1
284
     0
285
     0
286
     0
287
     4
288
     0
  0
DIMSTYLE
105
3A
330
A
100
AcDbSymbolTableRecord
100
AcDbDimStyleTableRecord
  2
1$3
 70
     0
  3

  4

  5
DOTSMALL
  6

  7

 40
1.0
 41
1.5
 42
0.5
 43
0.375
 44
1.19921875
 45
0.0
 46
0.5
 47
0.0
 48
0.0
140
0.75
141
0.125
142
0.0
143
25.4
144
1.0
145
0.0
146
0.8
147
0.5625
 71
     0
 72
     0
 73
     0
 74
     0
 75
     0
 76
     0
 77
     1
 78
     3
170
     0
171
     2
172
     1
173
     0
174
     1
175
     0
176
   133
177
   133
178
   150
270
     2
271
     3
272
     3
273
     2
274
     2
340
36
275
     0
280
     0
281
     0
282
     0
283
     1
284
     0
285
     0
286
     0
287
     4
288
     0
  0
DIMSTYLE
105
3B
330
A
100
AcDbSymbolTableRecord
100
AcDbDimStyleTableRecord
  2
1$7
 70
     0
  3

  4

  5

  6

  7

 40
1.0
 41
1.0
 42
0.5
 43
0.375
 44
1.19921875
 45
0.0
 46
0.5
 47
0.0
 48
0.0
140
0.75
141
0.125
142
0.0
143
25.4
144
1.0
145
0.0
146
0.8
147
0.5625
 71
     0
 72
     0
 73
     0
 74
     0
 75
     0
 76
     0
 77
     1
 78
     3
170
     0
171
     2
172
     1
173
     0
174
     1
175
     0
176
   133
177
   133
178
   150
270
     2
271
     3
272
     3
273
     2
274
     2
340
36
275
     0
280
     0
281
     0
282
     0
283
     1
284
     0
285
     0
286
     0
287
     4
288
     0
  0
ENDTAB
  0
TABLE
  2
BLOCK_RECORD
  5
1
330
0
100
AcDbSymbolTable
 70
     5
  0
BLOCK_RECORD
  5
1F
102
{ACAD_XDICTIONARY
360
24A
102
}
330
1
100
AcDbSymbolTableRecord
100
AcDbBlockTableRecord
  2
*MODEL_SPACE
  0
BLOCK_RECORD
  5
1B
102
{ACAD_XDICTIONARY
360
248
102
}
330
1
100
AcDbSymbolTableRecord
100
AcDbBlockTableRecord
  2
*PAPER_SPACE
  0
BLOCK_RECORD
  5
2B
330
1
100
AcDbSymbolTableRecord
100
AcDbBlockTableRecord
  2
_DOT
  0
BLOCK_RECORD
  5
30
330
1
100
AcDbSymbolTableRecord
100
AcDbBlockTableRecord
  2
_DOTSMALL
  0
BLOCK_RECORD
  5
C2
330
1
100
AcDbSymbolTableRecord
100
AcDbBlockTableRecord
  2
*D3
  0
BLOCK_RECORD
  5
D0
330
1
100
AcDbSymbolTableRecord
100
AcDbBlockTableRecord
  2
*D4
  0
ENDTAB
  0
ENDSEC
  0
SECTION
  2
BLOCKS
  0
BLOCK
  5
20
330
1F
100
AcDbEntity
  8
0
100
AcDbBlockBegin
  2
*MODEL_SPACE
 70
     0
 10
0.0
 20
0.0
 30
0.0
  3
*MODEL_SPACE
  1

  0
ENDBLK
  5
21
330
1F
100
AcDbEntity
  8
0
100
AcDbBlockEnd
  0
BLOCK
  5
1C
330
1B
100
AcDbEntity
 67
     1
  8
0
100
AcDbBlockBegin
  2
*PAPER_SPACE
 70
     0
 10
0.0
 20
0.0
 30
0.0
  3
*PAPER_SPACE
  1

  0
ENDBLK
  5
1D
330
1B
100
AcDbEntity
 67
     1
  8
0
100
AcDbBlockEnd
  0
BLOCK
  5
2E
330
2B
100
AcDbEntity
  8
0
100
AcDbBlockBegin
  2
_DOT
 70
     0
 10
0.0
 20
0.0
 30
0.0
  3
_DOT
  1

  0
LWPOLYLINE
  5
2C
330
2B
100
AcDbEntity
  8
L
 62
     0
100
AcDbPolyline
 90
        2
 70
     1
 43
0.5
 10
-0.25
 20
0.0
 42
1.0
 10
0.25
 20
0.0
 42
1.0
  0
LINE
  5
2D
330
2B
100
AcDbEntity
  8
L
 62
     0
100
AcDbLine
 10
-0.5
 20
0.0
 30
0.0
 11
-1.0
 21
0.0
 31
0.0
  0
ENDBLK
  5
2F
330
2B
100
AcDbEntity
  8
0
100
AcDbBlockEnd
  0
BLOCK
  5
32
330
30
100
AcDbEntity
  8
0
 48
0.116666
100
AcDbBlockBegin
  2
_DOTSMALL
 70
     0
 10
0.0
 20
0.0
 30
0.0
  3
_DOTSMALL
  1

  0
LWPOLYLINE
  5
31
330
30
100
AcDbEntity
  8
0
  6
BYBLOCK
 62
     0
100
AcDbPolyline
 90
        2
 70
     1
 43
0.5
 10
-0.0625
 20
0.0
 42
1.0
 10
0.0625
 20
0.0
 42
1.0
  0
ENDBLK
  5
33
330
30
100
AcDbEntity
  8
0
 48
0.116666
100
AcDbBlockEnd
  0
BLOCK
  5
CD
330
C2
100
AcDbEntity
  8
0
100
AcDbBlockBegin
  2
*D3
 70
     1
 10
0.0
 20
0.0
 30
0.0
  3
*D3
  1

  0
LINE
  5
C3
330
C2
100
AcDbEntity
  8
0
 62
     0
100
AcDbLine
 10
4.668155618120762
 20
5.519029870074508
 30
0.0
 11
4.668155618120762
 21
7.848033166532943
 31
0.0
  0
LINE
  5
C4
330
C2
100
AcDbEntity
  8
0
 62
     0
100
AcDbLine
 10
7.948078622905561
 20
5.526081816878289
 30
0.0
 11
7.948078622905561
 21
7.848033166532943
 31
0.0
  0
LINE
  5
C5
330
C2
100
AcDbEntity
  8
0
 62
     0
100
AcDbLine
 10
4.848155618120761
 20
7.668033166532943
 30
0.0
 11
5.948117120513161
 21
7.668033166532943
 31
0.0
  0
LINE
  5
C6
330
C2
100
AcDbEntity
  8
0
 62
     0
100
AcDbLine
 10
7.768078622905561
 20
7.668033166532943
 30
0.0
 11
6.668117120513161
 21
7.668033166532943
 31
0.0
  0
SOLID
  5
C7
330
C2
100
AcDbEntity
  8
0
 62
     0
100
AcDbTrace
 10
4.848155618120761
 20
7.698033166532943
 30
0.0
 11
4.848155618120761
 21
7.638033166532943
 31
0.0
 12
4.668155618120762
 22
7.668033166532943
 32
0.0
 13
4.668155618120762
 23
7.668033166532943
 33
0.0
  0
SOLID
  5
C8
330
C2
100
AcDbEntity
  8
0
 62
     0
100
AcDbTrace
 10
7.768078622905561
 20
7.698033166532943
 30
0.0
 11
7.768078622905561
 21
7.638033166532943
 31
0.0
 12
7.948078622905561
 22
7.668033166532943
 32
0.0
 13
7.948078622905561
 23
7.668033166532943
 33
0.0
  0
MTEXT
  5
C9
330
C2
100
AcDbEntity
  8
0
 62
     0
100
AcDbMText
 10
6.308117120513161
 20
7.668033166532943
 30
0.0
 40
0.18
 41
0.0
 71
     5
 72
     1
  1
\A1;3.28
1001
ACAD
1000
MTEXTBEGIN
1070
    73
1070
     1
1070
    44
1040
1.0
1070
    74
1070
     0
1000
MTEXTEND
  0
POINT
  5
CA
330
C2
100
AcDbEntity
  8
DEFPOINTS
 62
     0
100
AcDbPoint
 10
4.668155618120762
 20
5.456529870074508
 30
0.0
  0
POINT
  5
CB
330
C2
100
AcDbEntity
  8
DEFPOINTS
 62
     0
100
AcDbPoint
 10
7.948078622905561
 20
5.463581816878289
 30
0.0
  0
POINT
  5
CC
330
C2
100
AcDbEntity
  8
DEFPOINTS
 62
     0
100
AcDbPoint
 10
7.948078622905561
 20
7.668033166532943
 30
0.0
  0
ENDBLK
  5
CE
330
C2
100
AcDbEntity
  8
0
100
AcDbBlockEnd
  0
BLOCK
  5
DB
330
D0
100
AcDbEntity
  8
0
100
AcDbBlockBegin
  2
*D4
 70
     1
 10
0.0
 20
0.0
 30
0.0
  3
*D4
  1

  0
LINE
  5
DD
330
D0
100
AcDbEntity
  8
0
 62
     0
100
AcDbLine
 10
6.245789797551386
 20
7.250632220553565
 30
0.0
 11
3.979895489265367
 21
7.250632220553566
 31
0.0
  0
LINE
  5
DE
330
D0
100
AcDbEntity
  8
0
 62
     0
100
AcDbLine
 10
5.043289862233784
 20
5.000632220553562
 30
0.0
 11
3.979895489265367
 21
5.000632220553562
 31
0.0
  0
LINE
  5
DF
330
D0
100
AcDbEntity
  8
0
 62
     0
100
AcDbLine
 10
4.159895489265367
 20
7.070632220553566
 30
0.0
 11
4.159895489265367
 21
6.305632220553563
 31
0.0
  0
LINE
  5
E0
330
D0
100
AcDbEntity
  8
0
 62
     0
100
AcDbLine
 10
4.159895489265366
 20
5.180632220553562
 30
0.0
 11
4.159895489265366
 21
5.945632220553564
 31
0.0
  0
SOLID
  5
E1
330
D0
100
AcDbEntity
  8
0
 62
     0
100
AcDbTrace
 10
4.129895489265367
 20
7.070632220553566
 30
0.0
 11
4.189895489265367
 21
7.070632220553566
 31
0.0
 12
4.159895489265367
 22
7.250632220553566
 32
0.0
 13
4.159895489265367
 23
7.250632220553566
 33
0.0
  0
SOLID
  5
E2
330
D0
100
AcDbEntity
  8
0
 62
     0
100
AcDbTrace
 10
4.129895489265366
 20
5.180632220553562
 30
0.0
 11
4.189895489265366
 21
5.180632220553562
 31
0.0
 12
4.159895489265366
 22
5.000632220553562
 32
0.0
 13
4.159895489265366
 23
5.000632220553562
 33
0.0
  0
MTEXT
  5
E3
330
D0
100
AcDbEntity
  8
0
 62
     0
100
AcDbMText
 10
4.159895489265365
 20
6.125632220553565
 30
0.0
 40
0.18
 41
0.0
 71
     5
 72
     1
  1
\A1;2.25
1001
ACAD
1000
MTEXTBEGIN
1070
    73
1070
     1
1070
    44
1040
1.0
1070
    74
1070
     0
1000
MTEXTEND
  0
POINT
  5
E4
330
D0
100
AcDbEntity
  8
DEFPOINTS
 62
     0
100
AcDbPoint
 10
6.308289797551386
 20
7.250632220553565
 30
0.0
  0
POINT
  5
E5
330
D0
100
AcDbEntity
  8
DEFPOINTS
 62
     0
100
AcDbPoint
 10
5.105789862233784
 20
5.000632220553562
 30
0.0
  0
POINT
  5
E6
330
D0
100
AcDbEntity
  8
DEFPOINTS
 62
     0
100
AcDbPoint
 10
4.159895489265366
 20
5.000632220553562
 30
0.0
  0
ENDBLK
  5
DC
330
D0
100
AcDbEntity
  8
0
100
AcDbBlockEnd
  0
ENDSEC
  0
SECTION
  2
ENTITIES
  0
LWPOLYLINE
  5
BD
330
1F
100
AcDbEntity
  8
L
 62
     5
 48
0.116666
100
AcDbPolyline
 90
        2
 70
     0
 43
0.028125
 10
2.738274514265519
 20
3.948101461522774
 10
9.979663522886191
 20
3.948101461522774
  0
TEXT
  5
BE
330
1F
100
AcDbEntity
  8
L
 62
     3
 48
0.116666
100
AcDbText
 10
2.832010356946618
 20
4.04183730420376
 30
0.0
 40
0.140625
  1
SERIES 3 - 3 1/4" TRIANGULAR POST W/RADIUS EDGES #1250
  7
REG
100
AcDbText
  0
TEXT
  5
BF
330
1F
100
AcDbEntity
  8
TX
 48
0.116666
100
AcDbText
 10
2.832010356946618
 20
3.760615618841789
 30
0.0
 40
0.09375
  1
SCALE : FULL SIZE
  7
REG
 11
2.832010356946618
 21
3.854365618841789
 31
0.0
100
AcDbText
 73
     3
  0
DIMENSION
  5
C1
330
1F
100
AcDbEntity
  8
0
100
AcDbDimension
  2
*D3
 10
7.948078622905561
 20
7.668033166532943
 30
0.0
 11
6.308117120513161
 21
7.668033166532943
 31
0.0
 70
    32
  3
STANDARD
100
AcDbAlignedDimension
 13
4.668155618120762
 23
5.456529870074508
 33
0.0
 14
7.948078622905561
 24
5.463581816878289
 34
0.0
100
AcDbRotatedDimension
  0
DIMENSION
  5
CF
330
1F
100
AcDbEntity
  8
0
100
AcDbDimension
  2
*D4
 10
4.159895489265366
 20
5.000632220553562
 30
0.0
 11
4.159895489265365
 21
6.125632220553565
 31
0.0
 70
    32
  3
STANDARD
100
AcDbAlignedDimension
 13
6.308289797551386
 23
7.250632220553565
 33
0.0
 14
5.105789862233784
 24
5.000632220553562
 34
0.0
 50
90.0
100
AcDbRotatedDimension
  0
LWPOLYLINE
  5
15A
330
1F
100
AcDbEntity
  8
L
 62
     5
100
AcDbPolyline
 90
        6
 70
     1
 43
0.0
 10
5.455125703675882
 20
6.219632220553499
 10
7.161453890234376
 20
6.219632220553491
 42
0.6402035347347085
 10
7.208591988521554
 20
6.321906277834465
 10
6.616968311865702
 20
7.014362337692436
 42
0.4608998559279839
 10
5.99961128286565
 20
7.014362337692396
 10
5.407987605416112
 20
6.321906277866841
 42
0.64020353497799
  0
LWPOLYLINE
  5
189
330
1F
100
AcDbEntity
  8
L
 62
     5
100
AcDbPolyline
 90
       44
 70
     1
 43
0.0
 10
5.262840539143501
 20
6.029053361229368
 10
5.262840539143602
 20
6.029053361229394
 42
0.8649537561929008
 10
5.355352400285496
 20
6.03875668230973
 42
-2.036945350264881
 10
5.449900477561527
 20
5.959421425538652
 10
5.449900477561513
 20
5.959421425538717
 42
1.000000052263442
 10
5.469918467153647
 20
5.867577644624129
 10
5.469918467153654
 20
5.867577644624098
 10
5.470994230061585
 20
5.867815726445734
 10
5.470994230061585
 20
5.867815726445733
 42
-0.4805301036366155
 10
5.508789796563955
 20
5.837569730414735
 10
5.508789796563966
 20
5.837569730414735
 10
5.508789796563966
 20
5.551632220553493
 10
5.50878979656391
 20
5.551632220553493
 42
0.4142135623730951
 10
5.523789796563839
 20
5.536632220553563
 10
5.523789796563839
 20
5.536632220553507
 10
5.587289796564043
 20
5.536632220553507
 10
5.587289796564043
 20
5.53663222055345
 42
-0.4142135623730951
 10
5.602289796563972
 20
5.52163222055352
 10
5.602289796563916
 20
5.52163222055352
 10
5.602289796563916
 20
5.458632220553532
 10
5.602289796563972
 20
5.458632220553532
 42
-0.4142135623753151
 10
5.587289796564043
 20
5.443632220553489
 10
5.587289796564043
 20
5.443632220553546
 10
5.523789796563839
 20
5.443632220553546
 10
5.523789796563839
 20
5.443632220553602
 42
0.414213562375315
 10
5.50878979656391
 20
5.428632220553559
 10
5.508789796563966
 20
5.428632220553559
 10
5.508789796563966
 20
5.208632220553532
 10
5.50878979656391
 20
5.208632220553532
 42
0.414213562375315
 10
5.523789796563839
 20
5.193632220553489
 10
5.523789796563839
 20
5.193632220553546
 10
5.593789796564003
 20
5.193632220553546
 10
5.593789796564003
 20
5.193632220553602
 42
-0.4142135623753151
 10
5.608789796563932
 20
5.178632220553559
 10
5.608789796563875
 20
5.178632220553559
 10
5.608789796563875
 20
5.115632220553571
 10
5.608789796563989
 20
5.115632220553571
 42
-0.4142135623753151
 10
5.593789796564003
 20
5.100632220553471
 10
5.138671903750598
 20
5.100632220553471
 10
5.138671903750598
 20
5.100632220553398
 42
-0.6402035348550182
 10
4.88169323897002
 20
5.658190790979419
 10
4.88169323896988
 20
5.658190790979539
 10
5.209228147644914
 20
6.041548558964073
 10
5.209228147644861
 20
6.041548558964119
 42
-0.6081219572256548
  0
LWPOLYLINE
  5
1AE
330
1F
100
AcDbEntity
  8
L
 62
     5
100
AcDbPolyline
 90
       42
 70
     1
 43
0.0
 10
7.353739053984492
 20
6.029053361229393
 10
7.353739053984589
 20
6.029053361229368
 42
-0.6081219572256548
 10
7.407351445483235
 20
6.041548558964121
 10
7.407351445483179
 20
6.041548558964073
 10
7.734886354157985
 20
5.658190790979539
 10
7.734886354157977
 20
5.658190790979531
 42
-0.6402035348554089
 10
7.477907689377268
 20
5.100632220553398
 10
7.477907689377268
 20
5.100632220553471
 10
7.022789796563863
 20
5.100632220553471
 42
-0.414213562370875
 10
7.007789796564104
 20
5.115632220553571
 10
7.00778979656399
 20
5.115632220553571
 10
7.00778979656399
 20
5.178632220553559
 10
7.007789796563933
 20
5.178632220553559
 42
-0.414213562375315
 10
7.022789796563863
 20
5.193632220553602
 10
7.022789796563863
 20
5.193632220553546
 10
7.092789796564026
 20
5.193632220553546
 10
7.092789796564026
 20
5.193632220553489
 42
0.4142135623753149
 10
7.107789796563956
 20
5.208632220553532
 10
7.107789796563899
 20
5.208632220553532
 10
7.107789796563899
 20
5.428632220553559
 10
7.107789796563956
 20
5.428632220553559
 42
0.4142135623753149
 10
7.092789796564026
 20
5.443632220553602
 10
7.092789796564026
 20
5.443632220553546
 10
7.02928979656405
 20
5.443632220553546
 10
7.02928979656405
 20
5.443632220553489
 42
-0.4142135623775349
 10
7.01428979656378
 20
5.458632220553532
 10
7.01428979656395
 20
5.458632220553532
 10
7.01428979656395
 20
5.52163222055352
 10
7.01428979656378
 20
5.52163222055352
 42
-0.4142135623753151
 10
7.02928979656405
 20
5.53663222055345
 10
7.02928979656405
 20
5.536632220553507
 10
7.092789796564026
 20
5.536632220553507
 10
7.092789796564026
 20
5.536632220553563
 42
0.4142135623730951
 10
7.107789796563956
 20
5.551632220553493
 10
7.107789796563899
 20
5.551632220553493
 10
7.107789796563899
 20
5.837576587299587
 10
7.107789796563798
 20
5.837576587299587
 42
-0.4836990214930934
 10
7.145896080215264
 20
5.867751091979345
 10
7.145896080215271
 20
5.867751091979374
 42
1.008380496769672
 10
7.166679115566584
 20
5.959421425538736
 10
7.166679115566569
 20
5.959421425538662
 42
-2.036945350271686
 10
7.261227192843044
 20
6.038756682309749
 42
0.8649537561929008
  0
LWPOLYLINE
  5
1BA
330
1F
100
AcDbEntity
  8
L
 62
     5
100
AcDbPolyline
 90
      110
 70
     1
 43
0.0
 10
7.00778979656399
 20
6.06363222055355
 10
7.007789796563933
 20
6.06363222055355
 42
0.4142135623730951
 10
6.945789796563865
 20
6.125632220553619
 10
6.945789796563865
 20
6.125632220553562
 10
6.318289796564037
 20
6.125632220553562
 10
6.308289796564046
 20
6.135632220553553
 10
6.298289796564056
 20
6.125632220553562
 10
5.670789796564001
 20
6.125632220553562
 10
5.670789796564001
 20
6.125632220553619
 42
0.4142135623741691
 10
5.608789796563705
 20
6.06363222055355
 10
5.608789796563875
 20
6.06363222055355
 10
5.608789796563875
 20
6.015632220553548
 10
5.608789796563932
 20
6.015632220553548
 42
0.4142135623730951
 10
5.623789796563976
 20
6.000632220553505
 10
5.623789796563976
 20
6.000632220553562
 10
5.687289796563952
 20
6.000632220553562
 10
5.687289796563952
 20
6.000632220553619
 42
-0.4142135623775347
 10
5.702289796564222
 20
5.985632220553576
 10
5.702289796564052
 20
5.985632220553576
 10
5.702289796564052
 20
5.765632220553548
 10
5.702289796564222
 20
5.765632220553548
 42
-0.4142135623775346
 10
5.687289796563952
 20
5.750632220553505
 10
5.687289796563952
 20
5.750632220553562
 10
5.623789796563976
 20
5.750632220553562
 10
5.623789796563976
 20
5.750632220553619
 42
0.414213562373095
 10
5.608789796563932
 20
5.735632220553576
 10
5.608789796563875
 20
5.735632220553576
 10
5.608789796563875
 20
5.640632220553548
 10
5.608789796563932
 20
5.640632220553548
 42
0.4142135623730951
 10
5.623789796563976
 20
5.625632220553505
 10
5.623789796563976
 20
5.625632220553562
 10
5.687289796563952
 20
5.625632220553562
 10
5.687289796563952
 20
5.625632220553619
 42
-0.4142135623775347
 10
5.702289796564222
 20
5.610632220553576
 10
5.702289796564052
 20
5.610632220553576
 10
5.702289796564052
 20
5.390632220553548
 10
5.702289796564222
 20
5.390632220553548
 42
-0.4142135623775346
 10
5.687289796563952
 20
5.375632220553505
 10
5.687289796563952
 20
5.375632220553562
 10
5.623789796563976
 20
5.375632220553562
 10
5.623789796563976
 20
5.375632220553619
 42
0.414213562373095
 10
5.608789796563932
 20
5.360632220553576
 10
5.608789796563875
 20
5.360632220553576
 10
5.608789796563875
 20
5.265632220553548
 10
5.608789796563932
 20
5.265632220553548
 42
0.4142135623730951
 10
5.623789796563976
 20
5.250632220553505
 10
5.623789796563976
 20
5.250632220553562
 10
5.687289796563952
 20
5.250632220553562
 10
5.687289796563952
 20
5.250632220553619
 42
-0.4142135623775347
 10
5.702289796564222
 20
5.235632220553576
 10
5.702289796564052
 20
5.235632220553576
 10
5.702289796564052
 20
5.015632220553548
 10
5.702289796564222
 20
5.015632220553548
 42
-0.4142135623775346
 10
5.687289796563952
 20
5.000632220553505
 10
5.687289796563952
 20
5.000632220553562
 10
5.105789862233784
 20
5.000632220553562
 10
5.105789862233784
 20
5.000632220553654
 42
-0.6402035877006865
 10
4.772781941019561
 20
5.723148947910321
 10
4.772781941019609
 20
5.723148947910281
 10
5.928143842746173
 20
7.075423005207277
 10
5.928143842746169
 20
7.07542300520728
 42
-0.4608998559279422
 10
6.688435750381828
 20
7.075423005207393
 10
6.688435750381692
 20
7.075423005207277
 10
7.843797652108257
 20
5.723148947910281
 10
7.843797652108304
 20
5.723148947910321
 42
-0.6402035877006865
 10
7.510789730894082
 20
5.000632220553654
 10
7.510789730894082
 20
5.000632220553562
 10
6.929289796563914
 20
5.000632220553562
 10
6.929289796563914
 20
5.000632220553505
 42
-0.4142135623753149
 10
6.914289796563984
 20
5.015632220553548
 10
6.914289796564041
 20
5.015632220553548
 10
6.914289796564041
 20
5.235632220553576
 10
6.914289796563984
 20
5.235632220553576
 42
-0.414213562375315
 10
6.929289796563914
 20
5.250632220553619
 10
6.929289796563914
 20
5.250632220553562
 10
6.99278979656389
 20
5.250632220553562
 10
6.99278979656389
 20
5.250632220553505
 42
0.4142135623775349
 10
7.007789796564161
 20
5.265632220553548
 10
7.00778979656399
 20
5.265632220553548
 10
7.00778979656399
 20
5.360632220553576
 10
7.007789796564161
 20
5.360632220553576
 42
0.4142135623775347
 10
6.99278979656389
 20
5.375632220553619
 10
6.99278979656389
 20
5.375632220553562
 10
6.929289796563914
 20
5.375632220553562
 10
6.929289796563914
 20
5.375632220553505
 42
-0.4142135623753149
 10
6.914289796563984
 20
5.390632220553548
 10
6.914289796564041
 20
5.390632220553548
 10
6.914289796564041
 20
5.610632220553576
 10
6.914289796563984
 20
5.610632220553576
 42
-0.414213562375315
 10
6.929289796563914
 20
5.625632220553619
 10
6.929289796563914
 20
5.625632220553562
 10
6.99278979656389
 20
5.625632220553562
 10
6.99278979656389
 20
5.625632220553505
 42
0.4142135623775349
 10
7.007789796564161
 20
5.640632220553548
 10
7.00778979656399
 20
5.640632220553548
 10
7.00778979656399
 20
5.735632220553576
 10
7.007789796564161
 20
5.735632220553576
 42
0.4142135623775347
 10
6.99278979656389
 20
5.750632220553619
 10
6.99278979656389
 20
5.750632220553562
 10
6.929289796563914
 20
5.750632220553562
 10
6.929289796563914
 20
5.750632220553505
 42
-0.4142135623753149
 10
6.914289796563984
 20
5.765632220553548
 10
6.914289796564041
 20
5.765632220553548
 10
6.914289796564041
 20
5.985632220553576
 10
6.914289796563984
 20
5.985632220553576
 42
-0.414213562375315
 10
6.929289796563914
 20
6.000632220553619
 10
6.929289796563914
 20
6.000632220553562
 10
6.99278979656389
 20
6.000632220553562
 10
6.99278979656389
 20
6.000632220553505
 42
0.4142135623775349
 10
7.00778979656399
 20
6.015632220553548
  0
ENDSEC
  0
SECTION
  2
OBJECTS
  0
DICTIONARY
  5
C
330
0
100
AcDbDictionary
  3
ACAD_GROUP
350
D
  3
ACAD_LAYOUT
350
1A
  3
ACAD_MLINESTYLE
350
17
  3
ACAD_PLOTSETTINGS
350
19
  3
ACAD_PLOTSTYLENAME
350
E
  3
ACDBHEADERROUNDTRIPXREC
350
228
  0
DICTIONARY
  5
24A
330
1F
100
AcDbDictionary
280
     1
  3
ACAD_LAYOUTSELFREF
360
24B
  0
DICTIONARY
  5
248
330
1B
100
AcDbDictionary
280
     1
  3
ACAD_LAYOUTSELFREF
360
249
  0
DICTIONARY
  5
D
102
{ACAD_REACTORS
330
C
102
}
330
C
100
AcDbDictionary
  0
DICTIONARY
  5
1A
102
{ACAD_REACTORS
330
C
102
}
330
C
100
AcDbDictionary
  0
DICTIONARY
  5
17
102
{ACAD_REACTORS
330
C
102
}
330
C
100
AcDbDictionary
  3
STANDARD
350
18
  0
DICTIONARY
  5
19
102
{ACAD_REACTORS
330
C
102
}
330
C
100
AcDbDictionary
  0
ACDBDICTIONARYWDFLT
  5
E
102
{ACAD_REACTORS
330
C
102
}
330
C
100
AcDbDictionary
281
     1
  3
Normal
350
F
100
AcDbDictionaryWithDefault
340
F
  0
DICTIONARY
  5
228
102
{ACAD_REACTORS
330
C
102
}
330
C
100
AcDbDictionary
  3
CEPSNTYPE
350
232
  3
FINGERPRINTGUID
350
233
  3
HYPERLINKBASE
350
22B
  3
INSUNITS
350
231
  3
LAYOUTDICT
350
22D
  3
LWETCUNION
350
230
  3
PLOTSETDICT
350
22E
  3
PLOTSTYLNAMDICT
350
22F
  3
PSVPSCALE
350
235
  3
PUCSBASE
350
238
  3
PUCSORGBACK
350
23E
  3
PUCSORGBOTTOM
350
23A
  3
PUCSORGFRONT
350
23D
  3
PUCSORGLEFT
350
23B
  3
PUCSORGRIGHT
350
23C
  3
PUCSORGTOP
350
239
  3
PUCSORTHOREF
350
236
  3
PUCSORTHOVIEW
350
237
  3
STYLESHEET
350
22C
  3
TSTACKALIGN
350
229
  3
TSTACKSIZE
350
22A
  3
UCSBASE
350
241
  3
UCSORGBACK
350
247
  3
UCSORGBOTTOM
350
243
  3
UCSORGFRONT
350
246
  3
UCSORGLEFT
350
244
  3
UCSORGRIGHT
350
245
  3
UCSORGTOP
350
242
  3
UCSORTHOREF
350
23F
  3
UCSORTHOVIEW
350
240
  3
VERSIONGUID
350
234
  0
XRECORD
  5
24B
102
{ACAD_REACTORS
330
24A
102
}
330
24A
100
AcDbXrecord
340
1F
  0
XRECORD
  5
249
102
{ACAD_REACTORS
330
248
102
}
330
248
100
AcDbXrecord
340
1B
  0
MLINESTYLE
  5
18
102
{ACAD_REACTORS
330
17
102
}
330
17
100
AcDbMlineStyle
  2
STANDARD
 70
     0
  3

 62
   256
 51
90.0
 52
90.0
 71
     2
 49
0.5
 62
   256
  6
BYLAYER
 49
-0.5
 62
   256
  6
BYLAYER
  0
ACDBPLACEHOLDER
  5
F
102
{ACAD_REACTORS
330
E
102
}
330
E
100
AcDbPlaceHolder
280
     0
  0
XRECORD
  5
232
102
{ACAD_REACTORS
330
228
102
}
330
228
100
AcDbXrecord
 90
        0
  0
XRECORD
  5
233
102
{ACAD_REACTORS
330
228
102
}
330
228
100
AcDbXrecord
  1
{DC175E3D-AE85-11D5-9A93-0040C77E826B}
  0
XRECORD
  5
22B
102
{ACAD_REACTORS
330
228
102
}
330
228
100
AcDbXrecord
  1

  0
XRECORD
  5
231
102
{ACAD_REACTORS
330
228
102
}
330
228
100
AcDbXrecord
 90
        1
  0
XRECORD
  5
22D
102
{ACAD_REACTORS
330
228
102
}
330
228
100
AcDbXrecord
340
1A
  0
XRECORD
  5
230
102
{ACAD_REACTORS
330
228
102
}
330
228
100
AcDbXrecord
 90
    10781
  0
XRECORD
  5
22E
102
{ACAD_REACTORS
330
228
102
}
330
228
100
AcDbXrecord
340
19
  0
XRECORD
  5
22F
102
{ACAD_REACTORS
330
228
102
}
330
228
100
AcDbXrecord
340
E
  0
XRECORD
  5
235
102
{ACAD_REACTORS
330
228
102
}
330
228
100
AcDbXrecord
 40
0.0
  0
XRECORD
  5
238
102
{ACAD_REACTORS
330
228
102
}
330
228
100
AcDbXrecord
340
0
  0
XRECORD
  5
23E
102
{ACAD_REACTORS
330
228
102
}
330
228
100
AcDbXrecord
 10
0.0
 20
0.0
 30
0.0
  0
XRECORD
  5
23A
102
{ACAD_REACTORS
330
228
102
}
330
228
100
AcDbXrecord
 10
0.0
 20
0.0
 30
0.0
  0
XRECORD
  5
23D
102
{ACAD_REACTORS
330
228
102
}
330
228
100
AcDbXrecord
 10
0.0
 20
0.0
 30
0.0
  0
XRECORD
  5
23B
102
{ACAD_REACTORS
330
228
102
}
330
228
100
AcDbXrecord
 10
0.0
 20
0.0
 30
0.0
  0
XRECORD
  5
23C
102
{ACAD_REACTORS
330
228
102
}
330
228
100
AcDbXrecord
 10
0.0
 20
0.0
 30
0.0
  0
XRECORD
  5
239
102
{ACAD_REACTORS
330
228
102
}
330
228
100
AcDbXrecord
 10
0.0
 20
0.0
 30
0.0
  0
XRECORD
  5
236
102
{ACAD_REACTORS
330
228
102
}
330
228
100
AcDbXrecord
340
0
  0
XRECORD
  5
237
102
{ACAD_REACTORS
330
228
102
}
330
228
100
AcDbXrecord
 70
     0
  0
XRECORD
  5
22C
102
{ACAD_REACTORS
330
228
102
}
330
228
100
AcDbXrecord
  1

  0
XRECORD
  5
229
102
{ACAD_REACTORS
330
228
102
}
330
228
100
AcDbXrecord
 90
        1
  0
XRECORD
  5
22A
102
{ACAD_REACTORS
330
228
102
}
330
228
100
AcDbXrecord
 90
       70
  0
XRECORD
  5
241
102
{ACAD_REACTORS
330
228
102
}
330
228
100
AcDbXrecord
340
0
  0
XRECORD
  5
247
102
{ACAD_REACTORS
330
228
102
}
330
228
100
AcDbXrecord
 10
0.0
 20
0.0
 30
0.0
  0
XRECORD
  5
243
102
{ACAD_REACTORS
330
228
102
}
330
228
100
AcDbXrecord
 10
0.0
 20
0.0
 30
0.0
  0
XRECORD
  5
246
102
{ACAD_REACTORS
330
228
102
}
330
228
100
AcDbXrecord
 10
0.0
 20
0.0
 30
0.0
  0
XRECORD
  5
244
102
{ACAD_REACTORS
330
228
102
}
330
228
100
AcDbXrecord
 10
0.0
 20
0.0
 30
0.0
  0
XRECORD
  5
245
102
{ACAD_REACTORS
330
228
102
}
330
228
100
AcDbXrecord
 10
0.0
 20
0.0
 30
0.0
  0
XRECORD
  5
242
102
{ACAD_REACTORS
330
228
102
}
330
228
100
AcDbXrecord
 10
0.0
 20
0.0
 30
0.0
  0
XRECORD
  5
23F
102
{ACAD_REACTORS
330
228
102
}
330
228
100
AcDbXrecord
340
0
  0
XRECORD
  5
240
102
{ACAD_REACTORS
330
228
102
}
330
228
100
AcDbXrecord
 70
     0
  0
XRECORD
  5
234
102
{ACAD_REACTORS
330
228
102
}
330
228
100
AcDbXrecord
  1
{8C17CC53-EDD6-43AC-AD1D-746AAC268E87}
  0
ENDSEC
  0
EOF
